songclip Love Story september 28 2011

[audio:http://www.beautifulwork.org/trueangle/ls3.mp3%5D

Audio Recorder
: gnome-sound-recorder 2.30.0 Details : recorded as a wav file.
MP3 Conversion
: ffmpeg Details : ffmpeg -i ls3.wav -ab 320k ls3.mp3 $ffmpeg -i ls3.wav -ab 320k ls3.mp3 FFmpeg version git-6a7e074, Copyright (c) 2000-2011 the FFmpeg developers built on Mar 8 2011 09:54:27 with gcc 4.5.2 configuration: --prefix=/usr --extra-cflags='-Wall -g ' --cc='ccache cc' --enable-shared --enable-libmp3lame --enable-gpl --enable-libvorbis --enable-pthreads --enable-libfaac --enable-libxvid --enable-postproc --enable-x11grab --enable-libgsm --enable-libtheora --enable-libopencore-amrnb --enable-libopencore-amrwb --enable-libx264 --enable-libspeex --enable-nonfree --disable-stripping --enable-avfilter --enable-libdirac --disable-decoder=libdirac --enable-libschroedinger --disable-encoder=libschroedinger --enable-version3 --enable-libopenjpeg --enable-libvpx --enable-librtmp --extra-libs=-lgcrypt --disable-altivec --disable-armv5te --disable-armv6 --disable-vis libavutil 50. 39. 0 / 50. 39. 0 libavcodec 52.113. 2 / 52.113. 2 libavformat 52.102. 0 / 52.102. 0 libavdevice 52. 2. 3 / 52. 2. 3 libavfilter 1. 76. 0 / 1. 76. 0 libswscale 0. 12. 0 / 0. 12. 0 libpostproc 51. 2. 0 / 51. 2. 0 [wav @ 0xbb3800] max_analyze_duration reached Input #0, wav, from 'ls3.wav': Duration: 06:45:47.14, bitrate: 1 kb/s Stream #0.0: Audio: pcm_s32le, 22050 Hz, 1 channels, s32, 705 kb/s Incompatible sample format 's32' for codec 'libmp3lame', auto-selecting format 's16' Output #0, mp3, to 'ls3.mp3': Metadata: TSSE : Lavf52.102.0 Stream #0.0: Audio: libmp3lame, 22050 Hz, 1 channels, s16, 320 kb/s Stream mapping: Stream #0.0 -> #0.0 Press [q] to stop encoding size= 946kB time=48.43 bitrate= 160.0kbits/s video:0kB audio:946kB global headers:0kB muxing overhead 0.003510% $file ls2.wav ls2.wav: RIFF (little-endian) data, WAVE audio, Microsoft PCM, 32 bit, mono 22050 Hz $file ls3.wav ls3.wav: RIFF (little-endian) data, WAVE audio, Microsoft PCM, 32 bit, mono 22050 Hz $file ls3.mp3 ls3.mp3: Audio file with ID3 version 2.4.0, contains: MPEG ADTS, layer III, v2, 160 kbps, 22.05 kHz, Monaural $

Leave a Reply

Fill in your details below or click an icon to log in:

WordPress.com Logo

You are commenting using your WordPress.com account. Log Out /  Change )

Google photo

You are commenting using your Google account. Log Out /  Change )

Twitter picture

You are commenting using your Twitter account. Log Out /  Change )

Facebook photo

You are commenting using your Facebook account. Log Out /  Change )

Connecting to %s